首页 » 动画 » [DDD] 剧场版 声之形 -The Shape of Voice- koe no katachi [BDrip HEVC AAC 810p][10bits]

信息

发布代号: curry

发布时间: 2017-05-19 21:19:37

状态统计: 做种 86, 下载 1, 完成 55

健 康 度: 10

Tracker +超展开 -超还原

Announce:

http://open.acgtracker.com:1096/announce

Announce list:
  • udp://tracker.publicbt.com:80/announce
  • http://share.camoe.cn:8080/announce
  • udp://208.67.16.113:8000/annonuce
  • http://208.67.16.113:8000/annonuce
  • http://tracker.ktxp.com:7070/announce
  • udp://tracker.ktxp.com:6868/announce
  • udp://tracker.ktxp.com:7070/announce
  • http://tracker.ktxp.com:6868/announce
  • udp://tracker.openbittorrent.com:80/announce
  • http://t2.popgo.org:7456/annonce
  • udp://t2.popgo.org:7456/annonce
  • http://tracker.ipv6tracker.org:80/announce
  • http://tracker.btcake.com/announce
  • udp://95.215.44.237:6969/announce
  • http://tracker2.itzmx.com:6961/announce
  • http://tr.bangumi.moe/announce
  • http://tr.bangumi.moe:6969/announce
  • http://retracker.ohys.net:80/announce
  • http://tracker.comicat.org:80/announce
  • udp://tracker.bittor.pw:1337/announce
  • udp://rhodiumsurfer.tk:6969/announce
  • http://open.acgtracker.com:1096/announce
  • udp://opentrackr.org:1337/announce
  • http://tracker.skyts.net:6969/announce
  • http://tracker.dmcomic.org:2710/announce
  • http://tracker.dmcomic.com:2710/announce
  • http://tracker1.itzmx.com:8080/announce
  • http://tracker2.itzmx.com:6961/announce
  • http://tracker3.itzmx.com:6961/announce
  • http://tracker4.itzmx.com:2710/announce
  • http://173.254.204.71:1096/announce
  • http://bigfoot1942.sektori.org:6969/announce
  • udp://tracker.pomf.se/announce
  • udp://tracker.pomf.se:80/announce
  • http://mgtracker.org:2710/announce
  • udp://mgtracker.org:2710/announce
  • http://mgtracker.org:6969/announce
  • http://tracker.xelion.fr:6969/announce
  • udp://tracker.xelion.fr:6969/announce
  • http://t.nyaatracker.com/announce
  • http://tracker.kisssub.org/announce
  • http://tracker.comicat.org/announce
  • http://tracker.kuroy.me:5944/announce
  • http://t.acg.rip:6699/announce
  • udp://t.acg.rip:6699/announce
  • http://tracker.kamigami.org:2710/announce
  • udp://tracker.kamigami.org:2710/announce
  • http://t.wahaha.work:6699/announce
  • http://share.camoe.cn:8080/announce
  • http://opentracker.acgnx.com:6869/announce
  • udp://tracker.opentrackr.org:1337/announce
  • udp://p4p.arenabg.com:1337/announce
  • udp://p4p.arenabg.ch:1337/announce
  • udp://tracker.openbittorrent.com:80/announce
  • udp://tracker.internetwarriors.net:1337/announce
  • http://bt.pusacg.org:8080/announce
  • http://tracker.dm258.cn:7070/announce
  • http://tracker2.wasabii.com.tw:6969/announce
  • udp://thetracker.org:80/announce
  • udp://tracker.grepler.com:6969/announce
  • udp://62.212.85.66:2710/announce
  • http://tracker.mg64.net:6881/announce
  • http://tracker.calculate.ru:6969/announce
  • http://opentracker.acgnx.se/announce
  • http://opentracker.acgnx.com:6869/announce
  • http://bt.dmhy.net/annonuce
  • http://share.dmhy.org/annonuce
  • http://share.dmhy.me/annonuce
  • https://tr.bangumi.moe:9696/announce
  • udp://tracker.prq.to:80/announce
  • http://121.14.98.151:9090/announce
  • http://94.228.192.98/announce
  • http://bt.sc-ol.com:2710/announce
  • http://btfile.sdo.com:6961/announce
  • https://t-115.rhcloud.com/only_for_ylbud
  • http://exodus.desync.com:6969/announce
  • udp://coppersurfer.tk:6969/announce
  • http://tracker3.torrentino.com/announce
  • http://tracker2.torrentino.com/announce
  • udp://open.demonii.com:1337/announce
  • udp://tracker.ex.ua:80/announce
  • http://pubt.net:2710/announce
  • http://tracker.tfile.me/announce
  • udp://bt.sc-ol.com:2710/announce

扫磁链

详情


最终还是自己给啪出来了。限定版,标红的有做,其他的跳过。

本編129分
特報・本予告
日本語字幕(字幕をオンにすると特報と本予告にも字幕が付く)
音声特典 新規音声トラック「inner silence」(制作初期に当作品のコンセプトに根ざして作曲されたパイロット楽曲を新たに本制作し、本編全編に渡り収録したアンビエント・ドローン音響)
DTS Headphone:X
オーディオコメンタリー 山田尚子(監督)×西屋太志(キャラクターデザイン)×石田奈央美(色彩設計)×髙尾一也(撮影監督)※オープニングからチャプター4まで。
早見沙織(西宮硝子役)×悠木碧(西宮結絃役)×山田尚子(監督)※チャプター5からチャプター9途中まで。
山田尚子(監督)×牛尾憲輔(音楽)×鶴岡陽太(音響監督)×名倉靖(録音)※チャプター9途中からラストまで。

Blu-ray初回限定特典:スペシャルブックレット、キャラクターデザイン・西屋太志描き下ろし特製ケース
映像特典(特典DISCに収録) 主題歌 aiko「恋をしたのは」新規描き下ろしアニメーション
牛尾憲輔「speed of youth」新規描き下ろしアニメーション
映画『聲の形』公開記念特番 ~映画『聲の形』ができるまで~ ロングバージョン
インタビュー 山田尚子(監督)・西屋太志(キャラクターデザイン)・篠原睦雄(美術監督)・牛尾憲輔(音楽)

取材地実景映像「将也の見た景色」
舞台挨拶映像
ロングPV
TV-SPOT 1 / TV-SPOT 2

HEVC crf18 810p AAC编码

只封了5.1音轨,本编和新规,评论轨跳过。2ch两条轨原主轨24bits,副轨16bits,编码以后都无所谓了,听了半天没听出来太大区别,好像副轨背景音效重一些?单独分出来了,有兴趣的拿去玩吧。

原盘字幕抽出来,没有挂。

有感觉感情衔接不上的地方,推荐参考一下原作漫画,因为改编比较重。

 

General

Complete name : D:\[DDD] 聲の形-The Shape of Voice koe no katachi [HEVC AAC 810p][10bits]\[DDD] 聲の形 [HEVC AAC(本編音声5.1+新規音声「inner silence」5.1) 810p][10bits].mp4
Format : MPEG-4
Format profile : Base Media
Codec ID : iso4 (iso4/hvc1/iso6)
File size : 1.72 GiB
Duration : 2 h 9 min
Overall bit rate mode : Variable
Overall bit rate : 1 895 kb/s
Encoded date : UTC 2017-05-19 12:02:55
Tagged date : UTC 2017-05-19 12:02:55


 

Video

ID : 1
Format : HEVC
Format/Info : High Efficiency Video Coding
Format profile : Main [email protected]@Main
Codec ID : hvc1
Codec ID/Info : High Efficiency Video Coding
Duration : 2 h 9 min
Bit rate : 1 103 kb/s
Maximum bit rate : 10.1 Mb/s
Width : 1 440 pixels
Height : 780 pixels
Display aspect ratio : 1.85:1
Frame rate mode : Constant
Frame rate : 23.976 (24000/1001) FPS
Color space : YUV
Chroma subsampling : 4:2:0
Bit depth : 10 bits
Bits/(Pixel*Frame) : 0.041
Stream size : 1 023 MiB (58%)
Writing library : x265 2.2998d4520d1cf:[Windows][GCC 6.2.0][64 bit] 10bit
Encoding settings : cpuid=1173503 / frame-threads=3 / numa-pools=8 / wpp / no-pmode / no-pme / no-psnr / no-ssim / log-level=2 / input-csp=1 / input-res=1440x780 / interlace=0 / total-frames=186600 / level-idc=0 / high-tier=1 / uhd-bd=0 / ref=6 / no-allow-non-conformance / no-repeat-headers / annexb / no-aud / no-hrd / info / hash=0 / no-temporal-layers / open-gop / min-keyint=1 / keyint=360 / bframes=6 / b-adapt=2 / b-pyramid / bframe-bias=0 / rc-lookahead=60 / lookahead-slices=4 / scenecut=40 / no-intra-refresh / ctu=32 / min-cu-size=8 / no-rect / no-amp / max-tu-size=16 / tu-inter-depth=2 / tu-intra-depth=2 / limit-tu=0 / rdoq-level=1 / signhide / no-tskip / nr-intra=0 / nr-inter=0 / no-constrained-intra / no-strong-intra-smoothing / max-merge=2 / limit-refs=3 / no-limit-modes / me=1 / subme=3 / merange=44 / temporal-mvp / weightp / no-weightb / no-analyze-src-pics / deblock=0:0 / sao / no-sao-non-deblock / rd=3 / no-early-skip / rskip / no-fast-intra / no-tskip-fast / no-cu-lossless / no-b-intra / rdpenalty=0 / psy-rd=1.00 / psy-rdoq=3.00 / no-rd-refine / analysis-mode=0 / no-lossless / cbqpoffs=0 / crqpoffs=0 / rc=crf / crf=18.0 / qcomp=0.60 / qpstep=4 / stats-write=0 / stats-read=0 / ipratio=1.40 / pbratio=1.30 / aq-mode=1 / aq-strength=1.00 / cutree / zone-count=0 / no-strict-cbr / qg-size=16 / no-rc-grain / qpmax=69 / qpmin=0 / sar=1 / overscan=0 / videoformat=5 / range=0 / colorprim=2 / transfer=2 / colormatrix=2 / chromaloc=0 / display-window=0 / max-cll=0,0 / min-luma=0 / max-luma=1023 / log2-max-poc-lsb=8 / vui-timing-info / vui-hrd-info / slices=1 / opt-qp-pps / opt-ref-list-length-pps / no-multi-pass-opt-rps / scenecut-bias=0.05
Encoded date : UTC 2017-05-19 12:02:55
Tagged date : UTC 2017-05-19 12:04:25


 

Audio #1

ID : 2
Format : AAC
Format/Info : Advanced Audio Codec
Format profile : LC
Codec ID : 40
Duration : 2 h 9 min
Bit rate mode : Variable
Bit rate : 371 kb/s
Maximum bit rate : 478 kb/s
Channel(s) : 6 channels
Channel positions : Front: L C R, Side: L R, LFE
Sampling rate : 48.0 kHz
Frame rate : 46.875 FPS (1024 spf)
Compression mode : Lossy
Stream size : 344 MiB (20%)
Title : 本編音声
Encoded date : UTC 2017-05-19 11:49:40
Tagged date : UTC 2017-05-19 12:04:25


 

Audio #2

ID : 3
Format : AAC
Format/Info : Advanced Audio Codec
Format profile : LC
Codec ID : 40
Duration : 2 h 9 min
Bit rate mode : Variable
Bit rate : 416 kb/s
Maximum bit rate : 472 kb/s
Channel(s) : 6 channels
Channel positions : Front: L C R, Side: L R, LFE
Sampling rate : 48.0 kHz
Frame rate : 46.875 FPS (1024 spf)
Compression mode : Lossy
Stream size : 386 MiB (22%)
Title : 新規音声「inner silence」
Encoded date : UTC 2017-05-19 11:56:12
Tagged date : UTC 2017-05-19 12:04:25


 

 


标签

DDD    剧场版    声之形 The Sh    ape    of Voice koe no kata    chi    BDrip    HEVC    AAC    810p    10bit    聲の形 The Sh   

文件清单 文件总数:10,文件总大小:2.4GB,特征码:abb689d746530cc41f7733c95fd79df3e8e1ca04

 
  • Folder [DDD] 聲の形-The Shape of Voice koe no katachi [HEVC AAC 810p][10bits]
    • 视频文件 [DDD] 聲の形 [HEVC AAC(本編音声5.1+新規音声「inner silence」5.1) 810p][10bits].mp4(1.7GB)
    • Unknown [DDD] 聲の形 [HEVC AAC(本編音声5.1+新規音声「inner silence」5.1) 810p][10bits].2ch2.m4a(244.7MB)
    • Unknown [DDD] 聲の形 [HEVC AAC(本編音声5.1+新規音声「inner silence」5.1) 810p][10bits].2ch1.m4a(211.5MB)
    • 视频文件 [DDD] 映像特典 主題歌 aiko 「恋をしたのは」.mp4(72.8MB)
    • 视频文件 [DDD] 映像特典 牛尾憲輔 「speed of youth」.mp4(47.8MB)
    • Unknown [DDD] 聲の形 [HEVC AAC(本編音声5.1+新規音声「inner silence」5.1) 810p][10bits].sup(47.4MB)
    • 视频文件 [DDD] 映像特典 TV-SPOT 1.mp4(18.4MB)
    • 视频文件 [DDD] 映像特典 TV-SPOT 2.mp4(14.4MB)
    • Unknown [DDD] 映像特典 主題歌 aiko 「恋をしたのは」.sup(11.3MB)
    • 文本文件 聲の形CRC32.txt(1.4KB)
 

往期吐槽(1)

正在加载留言,请稍候......
我要吐槽(吐槽限制不多于 1000 字)
填写内容
|∀゚ (´゚Д゚`) (;´Д`) (`・ω・) (=゚ω゚)= | ω・´) |-` ) |д` ) |ー` ) |∀` ) (つд⊂) (゚Д゚≡゚Д゚) (^o^)ノ (|||゚Д゚) ( ゚∀゚) ( ´∀`) (*´∀`) (*゚∇゚) (*゚ー゚) ( ゚ 3゚) ( ´ー`) ( ・_ゝ・) ( ´_ゝ`) (*´д`) (・ー・) (・∀・) (ゝ∀・) (〃∀〃) (*゚∀゚*) ( ゚∀。) ( `д´) (`ε´ ) (`ヮ´ ) σ`∀´) ゚∀゚)σ ゚ ∀゚)ノ (╬゚д゚) (|||゚д゚) ( ゚д゚) Σ( ゚д゚) ( ;゚д゚) ( ;´д`) ( д ) ゚ ゚ ( ☉д⊙) ((( ゚д゚))) ( ` ・´) ( ´д`) ( -д-) (>д<) ・゚( ノд`゚) ( TдT) ( ̄∇ ̄) ( ̄3 ̄) ( ̄ー ̄) ( ̄ .  ̄) ( ̄皿 ̄) ( ̄艸 ̄) ( ̄︿ ̄) ( ̄︶ ̄) ヾ(´ω゚`) (*´ω`*) (・ω・) ( ´・ω) (`・ω) (´・ω・`) (`・ω・´) ( `_っ´) ( `ー´) ( ´_っ`) ( ´ρ`) ( ゚ω゚) (o゚ω゚o) ( ^ω^) (。◕∀◕。) /( ◕‿‿◕ )\ ヾ(´ε`ヾ) (ノ゚∀゚)ノ (σ゚д゚)σ (σ゚∀゚)σ |д゚ ) ┃電柱┃ ゚(つд`゚) ゚Å゚ )  ⊂彡☆))д`) ⊂彡☆))д´) ⊂彡☆))∀`) (´∀((☆ミつ
验证码