首页 » Raw » [RAWPrismaShirou] Fate kaleid liner Prisma☆Illya Oath Under Snow (BD 1920x1080 x.264 FLAC)(raw轉載)

信息

发布代号: john12341234

发布时间: 2018-02-02 17:03:31

状态统计: 做种 52, 下载 0, 完成 4

健 康 度: 10

Tracker +超展开 -超还原

Announce:

http://open.acgtracker.com:1096/announce

Announce list:
  • udp://tracker.publicbt.com:80/announce
  • http://nyaa.tracker.wf:7777/announce
  • udp://open.stealth.si:80/announce
  • udp://tracker.opentrackr.org:1337/announce
  • udp://tracker.coppersurfer.tk:6969/announce
  • udp://tracker.leechers-paradise.org:6969/announce
  • udp://tracker.openbittorrent.com:80/announce
  • udp://tracker.prq.to:80/announce
  • udp://104.238.198.186:8000/announce
  • http://104.238.198.186:8000/announce
  • http://94.228.192.98/announce
  • http://share.dmhy.org/annonuce
  • http://tracker.btcake.com/announce
  • http://tracker.ktxp.com:6868/announce
  • http://tracker.ktxp.com:7070/announce
  • http://bt.sc-ol.com:2710/announce
  • http://open.acgtracker.com:1096/announce
  • http://btfile.sdo.com:6961/announce
  • https://t-115.rhcloud.com/only_for_ylbud
  • http://tr.bangumi.moe:6969/announce
  • http://exodus.desync.com:6969/announce
  • udp://coppersurfer.tk:6969/announce
  • http://tracker3.torrentino.com/announce
  • http://tracker2.torrentino.com/announce
  • udp://open.demonii.com:1337/announce
  • udp://tracker.ex.ua:80/announce
  • http://pubt.net:2710/announce
  • http://tracker.tfile.me/announce
  • http://bigfoot1942.sektori.org:6969/announce
  • http://t.nyaatracker.com/announce
  • udp://bt.sc-ol.com:2710/announce

详情+跨屏阅读


看沒人發BD那我就發一下,雖然是轉載的

第1次用這個發帖,貼不好的話請原諒

對比圖:(imgur)     左 BD ---- 右 某組上年發佈的

 


 原帖:nyaa.si/view/1002459

Fate kaleid liner Prisma☆Illya Oath Under Snow

There you go, some speed subs exist for this if you want to use them.

General
Unique ID : 7412019395534515097163965122347740563 (0x59380C5472D29808A27301CCFDB2D93)
Complete name : [RAWPrismaShirou]Fate kaleid liner Prisma☆Illya Oath Under Snow (BD 1920x1080 x.264 FLAC).mkv
Format : Matroska
Format version : Version 4 / Version 2
File size : 5.23 GiB
Duration : 1 h 29 min
Overall bit rate mode : Variable
Overall bit rate : 8 374 kb/s
Encoded date : UTC 2018-02-01 16:19:03
Writing application : mkvmerge v20.0.0 ('I Am The Sun') 64-bit
Writing library : libebml v1.3.5 + libmatroska v1.4.8
Encoding Gui : Hybrid 2018.01.28.2

Video
ID : 1
Format : AVC
Format/Info : Advanced Video Codec
Format profile : High [email protected]
Format settings : CABAC / 4 Ref Frames
Format settings, CABAC : Yes
Format settings, ReFrames : 4 frames
Codec ID : V_MPEG4/ISO/AVC
Duration : 1 h 29 min
Bit rate : 6 832 kb/s
Width : 1 920 pixels
Height : 1 080 pixels
Display aspect ratio : 16:9
Frame rate mode : Constant
Frame rate : 23.976 (24000/1001) FPS
Color space : YUV
Chroma subsampling : 4:2:0
Bit depth : 10 bits
Scan type : Progressive
Bits/(Pixel*Frame) : 0.137
Stream size : 4.27 GiB (82%)
Writing library : x264 core 155 r2901 7d0ff22
Encoding settings : cabac=1 / ref=3 / deblock=1:0:0 / analyse=0x3:0x111 / me=hex / subme=5 / psy=1 / psy_rd=1.00:0.00 / mixed_ref=1 / me_range=16 / chroma_me=1 / trellis=0 / 8x8dct=1 / cqm=0 / deadzone=21,11 / fast_pskip=0 / chroma_qp_offset=0 / threads=12 / lookahead_threads=3 / sliced_threads=0 / nr=0 / decimate=1 / interlaced=0 / bluray_compat=0 / constrained_intra=0 / bframes=3 / b_pyramid=2 / b_adapt=1 / b_bias=0 / direct=3 / weightb=1 / open_gop=0 / weightp=1 / keyint=250 / keyint_min=23 / scenecut=40 / intra_refresh=0 / rc_lookahead=40 / rc=crf / mbtree=0 / crf=18.0 / qcomp=0.50 / qpmin=0 / qpmax=81 / qpstep=4 / vbv_maxrate=150000 / vbv_bufsize=187500 / crf_max=0.0 / nal_hrd=none / filler=0 / ip_ratio=1.40 / pb_ratio=1.30 / aq=0
Language : English
Default : Yes
Forced : Yes
Color range : Limited
Matrix coefficients : BT.709

Audio
ID : 2
Format : FLAC
Format/Info : Free Lossless Audio Codec
Codec ID : A_FLAC
Duration : 1 h 29 min
Bit rate mode : Variable
Bit rate : 1 540 kb/s
Channel(s) : 6 channels
Channel positions : Front: L C R, Side: L R, LFE
Sampling rate : 48.0 kHz
Frame rate : 10.417 FPS (4608 SPF)
Bit depth : 16 bits
Stream size : 985 MiB (18%)
Title : Surround 5.1
Writing library : MakeMKV v1.10.10 win(x64-release)
Language : Japanese
Default : Yes
Forced : No

Menu
00:00:00.000 : en:Chapter 01
00:06:00.234 : en:Chapter 02
00:11:08.084 : en:Chapter 03
00:13:38.484 : en:Chapter 04
00:20:11.168 : en:Chapter 05
00:25:55.345 : en:Chapter 06
00:32:18.353 : en:Chapter 07
00:39:04.133 : en:Chapter 08
00:40:46.235 : en:Chapter 09
00:50:31.778 : en:Chapter 10
00:58:24.000 : en:Chapter 11
01:04:05.132 : en:Chapter 12
01:07:16.782 : en:Chapter 13
01:11:08.305 : en:Chapter 14
01:14:59.912 : en:Chapter 15
01:20:39.084 : en:Chapter 16
01:25:18.238 : en:Chapter 17
01:29:24.359 : en:Chapter 18

 

 

 


文件清单 文件总数:1,文件总大小:5.2GB,特征码:d0813fcc1ced125823321146e08fe72e61b76380

 
  • 视频文件 [RAWPrismaShirou] Fate kaleid liner Prisma☆Illya Oath Under Snow (BD 1920x1080 x.264 FLAC).mkv(5.2GB)
 

往期吐槽(0)

正在加载留言,请稍候......
我要吐槽(吐槽限制不多于 1000 字)
填写内容
|∀゚ (´゚Д゚`) (;´Д`) (`・ω・) (=゚ω゚)= | ω・´) |-` ) |д` ) |ー` ) |∀` ) (つд⊂) (゚Д゚≡゚Д゚) (^o^)ノ (|||゚Д゚) ( ゚∀゚) ( ´∀`) (*´∀`) (*゚∇゚) (*゚ー゚) ( ゚ 3゚) ( ´ー`) ( ・_ゝ・) ( ´_ゝ`) (*´д`) (・ー・) (・∀・) (ゝ∀・) (〃∀〃) (*゚∀゚*) ( ゚∀。) ( `д´) (`ε´ ) (`ヮ´ ) σ`∀´) ゚∀゚)σ ゚ ∀゚)ノ (╬゚д゚) (|||゚д゚) ( ゚д゚) Σ( ゚д゚) ( ;゚д゚) ( ;´д`) ( д ) ゚ ゚ ( ☉д⊙) ((( ゚д゚))) ( ` ・´) ( ´д`) ( -д-) (>д<) ・゚( ノд`゚) ( TдT) ( ̄∇ ̄) ( ̄3 ̄) ( ̄ー ̄) ( ̄ .  ̄) ( ̄皿 ̄) ( ̄艸 ̄) ( ̄︿ ̄) ( ̄︶ ̄) ヾ(´ω゚`) (*´ω`*) (・ω・) ( ´・ω) (`・ω) (´・ω・`) (`・ω・´) ( `_っ´) ( `ー´) ( ´_っ`) ( ´ρ`) ( ゚ω゚) (o゚ω゚o) ( ^ω^) (。◕∀◕。) /( ◕‿‿◕ )\ ヾ(´ε`ヾ) (ノ゚∀゚)ノ (σ゚д゚)σ (σ゚∀゚)σ |д゚ ) ┃電柱┃ ゚(つд`゚) ゚Å゚ )  ⊂彡☆))д`) ⊂彡☆))д´) ⊂彡☆))∀`) (´∀((☆ミつ
验证码