<![CDATA[漫猫动漫BT下载]]> http://comicat.org Mon, 18 Dec 2017 09:03:03 +0800 zh-cn MioBT RSS Generator MioBT <![CDATA[[DDD] 迷糊餐厅web版 WWW.WORKING!! [BDrip 720p HEVC AAC][10bits] (猫组)]]> http://comicat.org/show-01efa539440992815618d37522b6b22c736bb598.html

个人觉得这部笑点要比本传犬组足,一季度做完一个故事,一口气能看得很爽快,角色模式跟犬组类似,安利给时间不多的童鞋可以放弃看本传。

字幕包搜集于vcb论坛,原为抄写档,偶尔改了几个错字,感谢手抄贡献者。

General

Complete name : D:\[DDD] WWW.WORKING!! [BDrip 720p HEVC AAC][10bits]\WWW.WORKING!! 第01話 「アルバイトは人生を変えてくれる」.mp4
Format : MPEG-4
Format profile : Base Media
Codec ID : isom (isom)
File size : 139 MiB
Duration : 23 min 46 s
Overall bit rate mode : Variable
Overall bit rate : 816 kb/s
Encoded date : UTC 2017-10-30 09:26:22
Tagged date : UTC 2017-10-30 09:26:22

Video

ID : 1
Format : HEVC
Format/Info : High Efficiency Video Coding
Format profile : Main 10@L4@Main
Codec ID : hev1
Codec ID/Info : High Efficiency Video Coding
Duration : 23 min 45 s
Bit rate : 657 kb/s
Maximum bit rate : 9 259 kb/s
Width : 1 280 pixels
Height : 720 pixels
Display aspect ratio : 16:9
Frame rate mode : Variable
Frame rate : 23.976 (23976/1000) FPS
Minimum frame rate : 23.810 FPS
Maximum frame rate : 16 000.000 FPS
Original frame rate : 23.976 (24000/1001) FPS
Color space : YUV
Chroma subsampling : 4:2:0
Bit depth : 10 bits
Bits/(Pixel*Frame) : 0.030
Stream size : 112 MiB (81%)
Writing library : x265 2.2998d4520d1cf:[Windows][GCC 6.2.0][64 bit] 10bit
Encoding settings : cpuid=1173503 / frame-threads=3 / numa-pools=8 / wpp / no-pmode / no-pme / no-psnr / no-ssim / log-level=2 / input-csp=1 / input-res=1280x720 / interlace=0 / total-frames=34191 / level-idc=0 / high-tier=1 / uhd-bd=0 / ref=6 / no-allow-non-conformance / no-repeat-headers / annexb / no-aud / no-hrd / info / hash=0 / no-temporal-layers / open-gop / min-keyint=1 / keyint=720 / bframes=6 / b-adapt=2 / b-pyramid / bframe-bias=0 / rc-lookahead=40 / lookahead-slices=4 / scenecut=40 / no-intra-refresh / ctu=32 / min-cu-size=8 / no-rect / no-amp / max-tu-size=32 / tu-inter-depth=2 / tu-intra-depth=2 / limit-tu=0 / rdoq-level=1 / signhide / no-tskip / nr-intra=0 / nr-inter=0 / no-constrained-intra / no-strong-intra-smoothing / max-merge=2 / limit-refs=3 / no-limit-modes / me=1 / subme=2 / merange=44 / temporal-mvp / weightp / no-weightb / no-analyze-src-pics / deblock=0:0 / sao / no-sao-non-deblock / rd=3 / no-early-skip / rskip / no-fast-intra / no-tskip-fast / no-cu-lossless / no-b-intra / rdpenalty=0 / psy-rd=1.00 / psy-rdoq=3.00 / no-rd-refine / analysis-mode=0 / no-lossless / cbqpoffs=0 / crqpoffs=0 / rc=crf / crf=18.0 / qcomp=0.60 / qpstep=4 / stats-write=0 / stats-read=0 / ipratio=1.40 / pbratio=1.30 / aq-mode=1 / aq-strength=1.00 / cutree / zone-count=0 / no-strict-cbr / qg-size=16 / no-rc-grain / qpmax=69 / qpmin=0 / sar=1 / overscan=0 / videoformat=5 / range=0 / colorprim=2 / transfer=2 / colormatrix=2 / chromaloc=0 / display-window=0 / max-cll=0,0 / min-luma=0 / max-luma=1023 / log2-max-poc-lsb=8 / vui-timing-info / vui-hrd-info / slices=1 / opt-qp-pps / opt-ref-list-length-pps / no-multi-pass-opt-rps / scenecut-bias=0.05
Tagged date : UTC 2017-10-30 09:26:23

Audio

ID : 2
Format : AAC
Format/Info : Advanced Audio Codec
Format profile : LC
Codec ID : mp4a-40-2
Duration : 23 min 46 s
Bit rate mode : Variable
Bit rate : 154 kb/s
Maximum bit rate : 253 kb/s
Channel(s) : 2 channels
Channel positions : Front: L R
Sampling rate : 48.0 kHz
Frame rate : 46.875 FPS (1024 SPF)
Compression mode : Lossy
Stream size : 26.2 MiB (19%)
Encoded date : UTC 2017-10-30 03:35:54
Tagged date : UTC 2017-10-30 09:26:23

 
]]>
http://comicat.org/show-01efa539440992815618d37522b6b22c736bb598.html Tue, 31 Oct 2017 18:03:34 +0800
<![CDATA[[SFEO-Raws] WWW.WORKING!! (BD 720P x264 10bit AAC)]]> http://comicat.org/show-300cea904506ecab1e76738f7d4599e11831dab5.html


]]>
http://comicat.org/show-300cea904506ecab1e76738f7d4599e11831dab5.html Wed, 25 Oct 2017 12:36:41 +0800
<![CDATA[[Moozzi2] 迷糊餐厅S1 Working S1 BD-BOX (BD 1920x1080 x264 FLACx2)]]> http://comicat.org/show-0e85efcf78c41ae7e290ce210d83252898e7e722.html

[Moozzi2] 迷糊餐厅S1 Working S1 BD-BOX (BD 1920x1080 x264 FLACx2)


]]>
http://comicat.org/show-0e85efcf78c41ae7e290ce210d83252898e7e722.html Sat, 15 Jul 2017 10:28:11 +0800
<![CDATA[[Moozzi2] WWW.迷糊餐厅!! WWW.Working!! (BD 1920x1080 x264 Flac)]]> http://comicat.org/show-50e90df73c882a4ff3481113f0d258ecc8ee65a6.html

[Moozzi2] WWW.迷糊餐厅!! WWW.Working!! (BD 1920x1080 x264 Flac)


]]>
http://comicat.org/show-50e90df73c882a4ff3481113f0d258ecc8ee65a6.html Sat, 15 Jul 2017 10:26:48 +0800
<![CDATA[[ANK-Raws] Working!! (BDrip 1920x1080 HEVC-YUV420P10 FLAC)]]> http://comicat.org/show-83cec2b2608cf10d89599764b4a1dc25a9c03847.html

My Server FTP Download:https://www.mahou-shoujo.moe/ftp-download

History:https://www.mahou-shoujo.moe/ank-raws-bdrip-hevc

 

徵求度盤/BT分流、封面圖、網站設計(Wordpress):280469354

ANK-Raws水群:271713841

If you want All FLAC(include mkv) convert to AAC,use this function into bdrip's folder and run it(or drag bdrip's folder on this function), will automation converting all files of [ANK-Raws]...:Light-Flac_to_AAC

Friendly link:http://aurora-raws.com/

BDRIP PLAN:https://loli.coffee/


]]>
http://comicat.org/show-83cec2b2608cf10d89599764b4a1dc25a9c03847.html Wed, 21 Jun 2017 07:32:33 +0800
<![CDATA[[ANK-Raws] Working!!! (BDrip 1920x1080 HEVC-YUV420P10 FLAC)]]> http://comicat.org/show-775c025bf0fe5dfe65f2c4073273c536e41f5f90.html

My Server FTP Download:https://www.mahou-shoujo.moe/ftp-download

History:https://www.mahou-shoujo.moe/ank-raws-bdrip-hevc

 

徵求度盤/BT分流、封面圖、網站設計(Wordpress):280469354

ANK-Raws水群:271713841

If you want All FLAC(include mkv) convert to AAC,use this function into bdrip's folder and run it(or drag bdrip's folder on this function), will automation converting all files of [ANK-Raws]...:Light-Flac_to_AAC

Friendly link:http://aurora-raws.com/

BDRIP PLAN:https://loli.coffee/


]]>
http://comicat.org/show-775c025bf0fe5dfe65f2c4073273c536e41f5f90.html Mon, 19 Jun 2017 00:34:09 +0800
<![CDATA[[ANK-Raws] Working'!! (BDrip 1920x1080 HEVC-YUV420P10 FLAC)]]> http://comicat.org/show-c6f6bdd8839632b75bf6ecac0c0cbceae038148c.html

My Server FTP Download:https://www.mahou-shoujo.moe/ftp-download

History:https://www.mahou-shoujo.moe/ank-raws-bdrip-hevc

 

徵求度盤/BT分流、封面圖、網站設計(Wordpress):280469354

ANK-Raws水群:271713841

If you want All FLAC(include mkv) convert to AAC,use this function into bdrip's folder and run it(or drag bdrip's folder on this function), will automation converting all files of [ANK-Raws]...:Light-Flac_to_AAC

Friendly link:http://aurora-raws.com/

BDRIP PLAN:https://loli.coffee/


]]>
http://comicat.org/show-c6f6bdd8839632b75bf6ecac0c0cbceae038148c.html Fri, 16 Jun 2017 08:17:03 +0800
<![CDATA[[SFEO-Raws] 迷糊餐厅 WWW.WORKING!! (BD 1080P x264 FLAC)]]> http://comicat.org/show-03059388566a4aaa3fa7fea27ff08b7417ef635a.html

3fe366c84f5c2e0c39c8fcd345b005cc.png

Source-------------------------------------------------------------------------------Filtered

181a50.md.png 2b0866.md.png

3c3224.md.png 4c7d08.md.png

5c2afd.md.png 6.md.png

7.md.png 8.md.png

9.md.png 10.md.png


]]>
http://comicat.org/show-03059388566a4aaa3fa7fea27ff08b7417ef635a.html Fri, 09 Jun 2017 10:05:59 +0800
<![CDATA[[ANK-Raws] WWW.WORKING!! (BDrip 1920x1080 HEVC-YUV420P10 FLAC)]]> http://comicat.org/show-ba7053bc9e29713f0756922c39fbcccce36655ee.html

My Server FTP Download:https://www.mahou-shoujo.moe/ftp-download

History:https://www.mahou-shoujo.moe/ank-raws-bdrip-hevc

 

徵求度盤/BT分流、封面圖、網站設計(Wordpress):280469354

ANK-Raws水群:271713841

 

Friendly link:http://aurora-raws.com/

BDRIP PLAN:https://loli.coffee/


]]>
http://comicat.org/show-ba7053bc9e29713f0756922c39fbcccce36655ee.html Sun, 04 Jun 2017 18:35:37 +0800
<![CDATA[[ReinForce] WWW.WORKING!! - Vol 1~3 (BDRip 1920x1080 x264 FLAC)]]> http://comicat.org/show-8c5326be8588bba4223ac53e3dfa540d24c47eea.html http://comicat.org/show-8c5326be8588bba4223ac53e3dfa540d24c47eea.html Sun, 30 Apr 2017 01:39:50 +0800