<![CDATA[漫猫动漫BT下载]]> http://comicat.org Fri, 28 Apr 2017 12:19:36 +0800 zh-cn MioBT RSS Generator MioBT <![CDATA[[Zero-Raws][Dog Days][Vol.02][BD]]]> http://comicat.org/show-23035494257778f7a87ac834e54f999b6bc5befd.html

[Zero-Raws] Dog Days - Vol.02 (BD 1920x1080 x264 FLAC).torrent


]]>
http://comicat.org/show-23035494257778f7a87ac834e54f999b6bc5befd.html Wed, 12 Apr 2017 10:41:52 +0800
<![CDATA[The.Place.Promised.in.Our.Early.Days.2004.1080p.BluRay.REMUX.AVC.LPCM.5.1-RY4N]]> http://comicat.org/show-b3f632e93499496090d225eaaae6eee4a0f07b45.html

*Those who have downloaded my previously uploaded torrents may have experienced slow download speeds.
I've found out that my ISP limits my bittorrent bandwidth to other countries, so I have signed up for a Seedbox service located in France.
Now I will be able to seed my previous uploads & new uploads at a better speed to those in other regions(US, Japan, EU).
But please seed as long as possible, my seedbox has a traffic limit.

*you can find my other uploads by searching "RY4N" from the search bar.

MediaInfo

Complete name : The.Place.Promised.in.Our.Early.Days.2004.1080p.BluRay.REMUX.AVC.LPCM.5.1-RY4N.mkv
Format : Matroska
Format version : Version 2
File size : 19.7 GiB
Duration : 1 h 30 min
Overall bit rate mode : Variable
Overall bit rate : 31.2 Mb/s
Movie name : The Place Promised in Our Early Days : Blu-ray Disc
Encoded date : UTC 2017-04-09 11:29:10
Writing application : MakeMKV v1.10.5 win(x64-release)
Writing library : libmakemkv v1.10.5 (1.3.3/1.4.4) win(x64-release)
Original source medium : Blu-ray

Video
ID : 1
ID in the original source medium : 4113 (0x1011)
Format : AVC
Format/Info : Advanced Video Codec
Format profile : High@L4.1
Format settings, CABAC : Yes
Format settings, ReFrames : 4 frames
Codec ID : V_MPEG4/ISO/AVC
Duration : 1 h 30 min
Bit rate mode : Variable
Bit rate : 25.0 Mb/s
Maximum bit rate : 40.0 Mb/s
Width : 1 920 pixels
Height : 1 080 pixels
Display aspect ratio : 16:9
Frame rate mode : Constant
Frame rate : 23.976 (24000/1001) FPS
Standard : NTSC
Color space : YUV
Chroma subsampling : 4:2:0
Bit depth : 8 bits
Scan type : Progressive
Bits/(Pixel*Frame) : 0.502
Stream size : 15.8 GiB (80%)
Language : English
Default : No
Forced : No
Color range : Limited
Color primaries : BT.709
Transfer characteristics : BT.709
Matrix coefficients : BT.709

Audio #1
ID : 2
ID in the original source medium : 4352 (0x1100)
Format : PCM
Codec ID : 00001000-0000-0100-8000-00AA00389B71
Duration : 1 h 30 min
Bit rate mode : Constant
Bit rate : 4 608 kb/s
Channel(s) : 6 channels
Channel positions : Front: L C R, Side: L R, LFE
Sampling rate : 48.0 kHz
Frame rate : 30.000 FPS (1600 spf)
Bit depth : 16 bits
Stream size : 2.91 GiB (15%)
Title : Surround 5.1
Language : Japanese
Default : Yes
Forced : No

Audio #2
ID : 3
ID in the original source medium : 4353 (0x1101)
Format : PCM
Codec ID : A_PCM/INT/LIT
Duration : 1 h 30 min
Bit rate mode : Constant
Bit rate : 1 536 kb/s
Channel(s) : 2 channels
Sampling rate : 48.0 kHz
Frame rate : 30.000 FPS (1600 spf)
Bit depth : 16 bits
Stream size : 993 MiB (5%)
Title : Stereo
Language : Japanese
Default : No
Forced : No

Text #1
ID : 4
ID in the original source medium : 4608 (0x1200)
Format : PGS
Codec ID : S_HDMV/PGS
Codec ID/Info : Picture based subtitle format used on BDs/HD-DVDs
Duration : 1 h 30 min
Bit rate : 30.5 kb/s
Count of elements : 2319
Stream size : 19.6 MiB (0%)
Language : Korean
Default : No
Forced : No

Text #2
ID : 6
ID in the original source medium : 4609 (0x1201)
Format : PGS
Codec ID : S_HDMV/PGS
Codec ID/Info : Picture based subtitle format used on BDs/HD-DVDs
Duration : 1 h 29 min
Bit rate : 39.5 kb/s
Count of elements : 2555
Stream size : 25.3 MiB (0%)
Language : Japanese
Default : No
Forced : No

Menu
00:00:00.000 : en:Chapter 01
00:01:42.936 : en:Chapter 02
00:10:58.282 : en:Chapter 03
00:14:03.843 : en:Chapter 04
00:18:44.748 : en:Chapter 05
00:21:42.926 : en:Chapter 06
00:26:56.239 : en:Chapter 07
00:32:44.796 : en:Chapter 08
00:36:06.998 : en:Chapter 09
00:42:15.533 : en:Chapter 10
00:48:07.092 : en:Chapter 11
00:50:28.025 : en:Chapter 12
00:57:43.668 : en:Chapter 13
01:02:50.975 : en:Chapter 14
01:07:35.051 : en:Chapter 15
01:14:44.688 : en:Chapter 16
01:19:30.223 : en:Chapter 17
01:25:24.953 : en:Chapter 18
01:30:18.413 : en:Chapter 19

=================================================================

Plz Seed & Enjoy!]]>
http://comicat.org/show-b3f632e93499496090d225eaaae6eee4a0f07b45.html Mon, 10 Apr 2017 14:04:58 +0800
<![CDATA[[美鸟日记/美鸟伴身边/美鸟の日々][DVDrip][1-13][日英双语][超高压10bit]]]> http://comicat.org/show-648afe0dad0de926d349f82271fb0f15887b1d62.html

从外国网站找来,美版超高压10bit版.内含日英双语音轨及英文字幕.

若没种请下载此版本:http://share.dmhy.org/topics/view/301526_DVDrip_1-13.html

字幕见评论.


]]>
http://comicat.org/show-648afe0dad0de926d349f82271fb0f15887b1d62.html Sun, 09 Apr 2017 16:30:45 +0800
<![CDATA[【幻樱字幕组】【1月新番】【猫咪Days Nyanko Days】【01-12】【GB_MP4】【1280X720】]]> http://comicat.org/show-319ef4134e85f7d092be1edd9fa3e1574383d8c6.html

 


]]>
http://comicat.org/show-319ef4134e85f7d092be1edd9fa3e1574383d8c6.html Sat, 08 Apr 2017 12:44:53 +0800
<![CDATA[【幻樱字幕组】【1月新番】【猫咪Days Nyanko Days】【01-12】【BIG5_MP4】【1280X720】]]> http://comicat.org/show-6218216ca92d51991a1e62fe288e130a4b5f2108.html

 


]]>
http://comicat.org/show-6218216ca92d51991a1e62fe288e130a4b5f2108.html Sat, 08 Apr 2017 12:44:42 +0800
<![CDATA[[Moozzi2] Kin'iro Mosaic Pretty Days (BD 1920x1080 x.264 FLACx2) - Movie + SP]]> http://comicat.org/show-95d217dac3cd2abc8f7e0e25435a5ddd6e2a3ec5.html Image


[ distinct ]


]]>
http://comicat.org/show-95d217dac3cd2abc8f7e0e25435a5ddd6e2a3ec5.html Wed, 05 Apr 2017 20:32:10 +0800
<![CDATA[[170322] 劇場版「黒子のバスケ LAST GAME」主題歌「Glorious days」/GRANRODEO [320K]]]> http://comicat.org/show-e5f371523915950603acbc141417e147eaa9011d.html ]]> http://comicat.org/show-e5f371523915950603acbc141417e147eaa9011d.html Wed, 05 Apr 2017 07:47:37 +0800 <![CDATA[[IEgg-Raws][自抓] Animelo Summer Live 2016 -TOKI- 1~3Days (BD 1920X1080 x264 8bit PCM)]]> http://comicat.org/show-c0dfd5e59c1784839656c17c2c91743e3d0c4dd5.html
Please Keep the Seed]]>
http://comicat.org/show-c0dfd5e59c1784839656c17c2c91743e3d0c4dd5.html Mon, 03 Apr 2017 13:57:01 +0800
<![CDATA[すくうるでいず 第01巻 [School Days vol 01]]]> http://comicat.org/show-f17789e8298b05270dd0749d4bbf609f496e98a5.html すくうるでいず 第01巻 [School Days vol 01]

Click More Download Manga Novel Magazine Update Daily]]>
http://comicat.org/show-f17789e8298b05270dd0749d4bbf609f496e98a5.html Fri, 31 Mar 2017 19:12:32 +0800
<![CDATA[【極影字幕社】★01月新番[喵咪Days_Nyanko Days][12][720P][BIG5][MP4]]]> http://comicat.org/show-3f838287385ccd2f29e510e10b50c20a4c0aa189.html

 


]]>
http://comicat.org/show-3f838287385ccd2f29e510e10b50c20a4c0aa189.html Fri, 31 Mar 2017 13:53:55 +0800